Софт-Архив

Fastball дискография скачать торрент

Рейтинг: 4.4/5.0 (13 проголосовавших)

Категория: Торрент-файлы

Описание

Fastball, Группа: биография, отзывы

Биография:

Альтернатив рок трио «Fastball » было основано в Аустине, штат Техас, США. В состав группы вошли: Майлз Зунига (вокал/ гитара), Тони Скальзо (вокал/бас) и Джои Шаффилд (барабаны).

До момента формирования трио «Fastball », Шаффилд и Зунига являлись участниками поп-рок группы «Big Car». Группа выпустила первый и последний альбом «Normal» в 1992 году для лэйбла «Giant Records». Но вскоре коллектив расспался, в связи с возникновением проблем у их лэйбла.

Позднее и было сформировано трио «Fastball », первоначально группа носила название «Magneto U. S. A. ». Концертные выступления и последующие статьи в прессе, помогли коллективу за малый срок привлечь к себе популярность. В 1995 году группа получила премию «Austin Music Awards».

Завербовав менеджера Рассела Картера (известного по работе с «Matthew Sweet» и «the Indigo Girls ») и подписав контракт с лэйблом «Hollywood Records» группа приступила к записи своего первеенца.

Альбом «Make Your Mama Proud» увидел свет в 1996 году. Продюссером альбома выступил Джерри Финн, который так же работал с «Rancid» и «Green Day ».

В 1998 году группа «Fastball » выпускает свой второй лонгплэй «All The Pain Money Can Buy». Сингл «The Way» был удостоен чести прибывать на верхних позициях хит прарадов альтернативных синглов в США.

Спустя два года трио «Fastball » выпускает свой третий альбом «The Harsh Light Of Day», который прибывал в чартах Великобритании в течении трех недель.

Рекомендовать исполнителя друзьям: Фотографии: все фото

Fastball дискография скачать торрент

Fastball дискография скачать торрент

Fastball дискография скачать торрент

Fastball дискография скачать торрент

Fastball дискография скачать торрент

Fastball дискография скачать торрент

Fastball дискография скачать торрент

Fastball дискография скачать торрент

Fastball дискография скачать торрент

Fastball дискография скачать торрент

Fastball дискография скачать торрент

Fastball дискография скачать торрент

Fastball дискография скачать торрент:

  • скачать
  • скачать
  • Другие статьи

    Скачать музыку Fastball - All the Pain Money Can Buy (1998) через торрент

    Скачать музыку Fastball - All the Pain Money Can Buy / [1998, Rock, Pop-Rock, Power Pop, MP3] - торрент

    Fastball - All the Pain Money Can Buy
    Fastball дискография скачать торрент Формат: MP3, tracks, 256kbps
    Год выпуска: 1998
    Страна: USA
    Жанр: Rock. Pop-Rock. Power Pop
    Продолжительность: 00:42:07
    Описание:
    01. The way (4:17)
    02. Fire escape (3:21)
    03. Better than it was (2:48 )
    04. Which way to the top? (3:50)
    05. Sooner or later (2:40)
    06. Warm fuzzy feeling (1:55)
    07. Slow drag (3:37)
    08. G.o.d. (Good old days) (3:31)
    09. Charlie, the methadone man (3:17)
    10. Out of my head (2:33)
    11. Damaged goods (3:02)
    12. Nowhere road (3:25)
    13. Sweetwater, Texas (3:55)

    Информация о торренте:

    Размер содержимого: 68.7 MB
    Скачан: 143 раза
    Статус: Проверен Зарегистрирован на трекере: 2016-04-22 14:05

    Поддержи раздачу — поставь лайк:

    Как качать с торрента?

    На альбоме All the Pain Money Can Buy (199 американская группа Fastball создаст сильнейшее произведение, которое не только удостоится "золотого" статуса, но и выведет группу в ряды топ-селлеров - во многом благодаря поистине выдающемуся синглу "The Way". Когда "The Way" в качестве импортного сингла достиг английских магазинов, британцы были уверены, что такого рода музыку могли создать только соотечественники, скорее всего при участии либо Sir Paul McCartney, либо John William Weller.

    Просьба перекачать файл

    Писать комментарии на нашем торрент-трекере могут только зарегистрированные пользователи.
    Зарегистрируйтесь или авторизируйтесь на сайте.

    Fastball - биография, онлайн биография, музыка

    Fastball дискография скачать торрент

    Альтернативное рок-трио «Fastball» было основано в Остине, штат Техас, США. В состав группы вошли: Майлз Зунига (вокал/ гитара), Тони Скальзо (вокал/бас) и Джои Шаффилд (барабаны).

    До момента формирования трио «Fastball» Шаффилд и Зунига являлись участниками поп-рок группы «Big Car». Группа выпустила первый и последний альбом «Normal» в 1992 году для лэйбла «Giant Records». Но вскоре коллектив расспался в связи с возникновением проблем у их лэйбла.

    Позднее и было сформировано трио «Fastball», первоначально группа носила название «Magneto U.S.A.». Концертные выступления и последующие статьи в прессе помогли коллективу за малый срок привлечь к себе популярность. В 1995 году группа получила премию «Austin Music Awards».

    Завербовав менеджера Рассела Картера (известного по работе с «Matthew Sweet» и «the Indigo Girls») и подписав контракт с лэйблом «Hollywood Records», группа приступила к записи своего первенца.

    Альбом «Make Your Mama Proud» увидел свет в 1996 году. Продюсером альбома выступил Джерри Финн, который так же работал с «Rancid» и «Green Day».

    В 1998 году группа «Fastball» выпускает свой второй лонгплэй «All The Pain Money Can Buy». Сингл «The Way» был удостоен чести пребывать на верхних позициях хит-парадов альтернативных синглов в США.

    Спустя два года трио «Fastball» выпускает свой третий альбом «The Harsh Light Of Day», который пребывал в чартах Великобритании в течение трех недель.

    Скачать Fastball - 6 альбомов (1996 - 2009) FLAC, APE, Lossless, image

    - Fastball - 6 альбомов (1996 - 2009) -

    Fastball дискография скачать торрент

    Год: 1996 - 2009
    Жанр: Rock
    Продолжительность: 04:21:34
    Кодек: FLAC, APE
    Тип раздачи: (image+.cue), (tracks+.cue)
    Битрейт: Lossless - Описание: На альбоме All the Pain Money Can Buy (1998) американская группа Fastball создаст сильнейшее произведение, которое не только удостоится "золотого" статуса, но и выведет группу в ряды топ-селлеров - во многом благодаря поистине выдающемуся синглу "The Way". Когда "The Way" в качестве импортного сингла достиг английских магазинов, британцы были уверены, что такого рода музыку могли создать только соотечественники, скорее всего при участии либо Sir Paul McCartney, либо John William Weller. - Треклист:
    Список альбомов:
    1996 - Make Your Mama Proud
    1998 - All The Pain Money Can Buy
    2000 - The Harsh Light of Day
    2002 - Painting The Corners: The Best Of Fastball Альбомы:

    1996 - Make Your Mama Proud /1996 Hollywood Records/

    Fastball дискография скачать торрент

    Страна-производитель диска: US
    Номер по каталогу: 162 045-2
    Тип раздачи: FLAC (image+.cue)
    Наличие сканов: да, полные
    Источник (релизер): teimuraz67
    Трeклист.
    01. Human Torch (2:40)
    02. She Comes 'Round (3:27)
    03. Make Your Mama Proud (2:11)
    04. Back Door (2:21)
    05. Are You Ready For The Fallout? (3:13)
    06. Nothing (1:52)
    07. Boomerang (2:57)
    08. Eater (2:43)
    09. Knock It Down (2:09)
    10. Lender (1:59)
    11. Altamont (3:08)
    12. Emily (2:08)
    13. Seattle (2:50)
    14. Telephone Calls (2:14)

    Exact Audio Copy V1.0 beta 2 from 29. April 2011
    Отчёт EAC об извлечении, выполненном 26. декабря 2015, 17:21
    Fastball / Make Your Mama Proud
    Дисковод: PLEXTOR BDDVDRPX-B330SA Adapter: 0 ID: 1
    Режим чтения : Достоверность
    Использование точного потока : Да
    Отключение кэша аудио : Да
    Использование указателей C2 : Нет
    Коррекция смещения при чтении : 702
    Способность читать области Lead-in и Lead-out : Нет
    Заполнение пропущенных сэмплов тишиной : Да
    Удаление блоков с тишиной в начале и конце : Нет
    При вычислениях CRC использовались нулевые сэмплы : Да
    Интерфейс : Встроенный Win32-интерфейс для Win NT/2000
    Выходной формат : Пользовательский кодировщик
    Выбранный битрейт : 128 kBit/s
    Качество : Высокий
    Добавление ID3-тега : Нет
    Утилита сжатия : C:\Program Files\Exact Audio Copy\FLAC\FLAC.EXE
    Дополнительные параметры : -6 -V -T "ARTIST=%artist%" -T "TITLE=%title%" -T "ALBUM=%albumtitle%" -T "DATE=%year%" -T "TRACKNUMBER=%tracknr%" -T "GENRE=%genre%" -T "COMMENT=%comment%" -T "BAND=%albuminterpret%" -T "COMPOSER=%composer%" %haslyrics%--tag-from-
    TOC извлечённого CD
    Трек | Старт | Длительность | Начальный сектор | Конечный сектор
    ---------------------------------------------------------------------
    1 | 0:00.32 | 2:40.30 | 32 | 12061
    2 | 2:40.62 | 3:27.35 | 12062 | 27621
    3 | 6:08.22 | 2:10.43 | 27622 | 37414
    4 | 8:18.65 | 2:20.42 | 37415 | 47956
    5 | 10:39.32 | 3:13.05 | 47957 | 62436
    6 | 13:52.37 | 1:51.40 | 62437 | 70801
    7 | 15:44.02 | 2:57.15 | 70802 | 84091
    8 | 18:41.17 | 2:42.68 | 84092 | 96309
    9 | 21:24.10 | 2:08.72 | 96310 | 105981
    10 | 23:33.07 | 1:58.73 | 105982 | 114904
    11 | 25:32.05 | 3:08.12 | 114905 | 129016
    12 | 28:40.17 | 2:07.38 | 129017 | 138579
    13 | 30:47.55 | 2:49.52 | 138580 | 151306
    14 | 33:37.32 | 2:14.20 | 151307 | 161376
    Характеристики диапазона извлечения и сообщения об ошибках
    Выбранный диапазон
    Имя файла D:\FLAC\Fastball - Make Your Mama Proud - 1996.wav
    Пиковый уровень 100.0 %
    Скорость извлечения 2.6 X
    Качество диапазона 99.9 %
    CRC теста 7E0EBED4
    CRC копии 7E0EBED4
    Копирование. OK
    Ошибок не произошло
    AccurateRip: сводка
    Трек 1 : извлечено точно (доверие 7) [BA29CA34] (AR v2)
    Трек 2 : извлечено точно (доверие 7) [3AF954BD] (AR v2)
    Трек 3 : извлечено точно (доверие 7) [C72CC277] (AR v2)
    Трек 4 : извлечено точно (доверие 7) [07C2B199] (AR v2)
    Трек 5 : извлечено точно (доверие 7) [D8660A13] (AR v2)
    Трек 6 : извлечено точно (доверие 7) [DE3C8120] (AR v2)
    Трек 7 : извлечено точно (доверие 7) [A59BD0AE] (AR v2)
    Трек 8 : извлечено точно (доверие 7) [031231ED] (AR v2)
    Трек 9 : извлечено точно (доверие 7) [E11CD886] (AR v2)
    Трек 10 : извлечено точно (доверие 7) [0FF0FE55] (AR v2)
    Трек 11 : извлечено точно (доверие 7) [498A2D41] (AR v2)
    Трек 12 : извлечено точно (доверие 7) [C55DD9FE] (AR v2)
    Трек 13 : извлечено точно (доверие 7) [98B96DE2] (AR v2)
    Трек 14 : извлечено точно (доверие 7) [0D763383] (AR v2)
    Все треки извлечены точно
    Конец отчёта
    ---- CUETools DB Plugin V2.1.4
    [CTDB TOCID: m3GjBujiXM5PSSnW90kYPsMXUxo-] found
    Submit result: m3GjBujiXM5PSSnW90kYPsMXUxo- has been confirmed
    Track | CTDB Status
    1 | (1/1) Accurately ripped
    2 | (1/1) Accurately ripped
    3 | (1/1) Accurately ripped
    4 | (1/1) Accurately ripped
    5 | (1/1) Accurately ripped
    6 | (1/1) Accurately ripped
    7 | (1/1) Accurately ripped
    8 | (1/1) Accurately ripped
    9 | (1/1) Accurately ripped
    10 | (1/1) Accurately ripped
    11 | (1/1) Accurately ripped
    12 | (1/1) Accurately ripped
    13 | (1/1) Accurately ripped
    14 | (1/1) Accurately ripped
    ==== Контрольная сумма отчёта ADDD1C081A91FE922EF025B7DE2259E6146E0417BD6530D4AF7A795B0EAB5AAB ====

    Отчёт auCDtect Task manager:

    -----------------------
    DON'T MODIFY THIS FILE
    -----------------------
    PERFORMER: auCDtect Task Manager, ver. 1.6.0 RC1 build 1.6.0.1
    Copyright (c) 2008-2010 y-soft. All rights reserved
    http://y-soft.org
    ANALYZER: auCDtect: CD records authenticity detector, version 0.8.2
    Copyright (c) 2004 Oleg Berngardt. All rights reserved.
    Copyright (c) 2004 Alexander Djourik. All rights reserved.
    FILE: Fastball - Make Your Mama Proud - 1996.flac
    Size: 271096131 Hash: D94CD4AB663868D8EE28754E276A355E Accuracy: -m0
    Conclusion: CDDA 100%
    Signature: 45B1850BCC0EC61D7F8710AA5813EBEF8E8540CB

    1998 - All The Pain Money Can Buy /1999 Hollywood Records/

    Fastball дискография скачать торрент

    Страна-производитель диска: Germany
    Номер по каталогу: 0100952HWR
    Тип раздачи: APE (image+.cue)
    Наличие сканов: да, полные
    Источник (релизер): London
    Трeклист.
    01. The way (4:17)
    02. Fire escape (3:21)
    03. Better than it was (2:48)
    04. Which way to the top? (3:50)
    05. Sooner or later (2:40)
    06. Warm fuzzy feeling (1:55)
    07. Slow drag (3:37)
    08. G.o.d. (Good old days) (3:31)
    09. Charlie, the methadone man (3:17)
    10. Out of my head (2:33)
    11. Damaged goods (3:02)
    12. Nowhere road (3:25)
    13. Sweetwater, Texas (3:55)
    14. Freeloader Freddy (Bonus) (3:10)
    15. This guy's in love with you (Bonus) (3:33)
    16. Sweetwater, Texas (live) (4:16)

    Exact Audio Copy V0.99 prebeta 5 from 4. May 2009
    EAC extraction logfile from 5. March 2011, 11:16
    Fastball / All the pain money can buy
    Used drive : DVDRW DRW-6S160P Adapter: 1 ID: 0
    Read mode : Secure
    Utilize accurate stream : Yes
    Defeat audio cache : Yes
    Make use of C2 pointers : No
    Read offset correction : 6
    Overread into Lead-In and Lead-Out : No
    Fill up missing offset samples with silence : Yes
    Delete leading and trailing silent blocks : No
    Null samples used in CRC calculations : Yes
    Used interface : Native Win32 interface for Win NT & 2000
    Used output format : Monkey's Audio Lossless Encoder
    Selected bitrate : High Lossless Compression
    Quality : High
    Add ID3 tag : No
    Command line compressor : C:\Program Files\Monkey's Audio\MAC.exe
    Additional command line options : -v
    TOC of the extracted CD
    Track | Start | Length | Start sector | End sector
    ---------------------------------------------------------
    1 | 0:00.00 | 4:16.40 | 0 | 19239
    2 | 4:16.40 | 3:21.02 | 19240 | 34316
    3 | 7:37.42 | 2:47.43 | 34317 | 46884
    4 | 10:25.10 | 3:49.70 | 46885 | 64129
    5 | 14:15.05 | 2:39.52 | 64130 | 76106
    6 | 16:54.57 | 1:55.33 | 76107 | 84764
    7 | 18:50.15 | 3:37.02 | 84765 | 101041
    8 | 22:27.17 | 3:31.18 | 101042 | 116884
    9 | 25:58.35 | 3:16.62 | 116885 | 131646
    10 | 29:15.22 | 2:33.03 | 131647 | 143124
    11 | 31:48.25 | 3:01.52 | 143125 | 156751
    12 | 34:50.02 | 3:24.55 | 156752 | 172106
    13 | 38:14.57 | 3:54.58 | 172107 | 189714
    14 | 42:09.40 | 3:09.60 | 189715 | 203949
    15 | 45:19.25 | 3:32.62 | 203950 | 219911
    16 | 48:52.12 | 4:16.03 | 219912 | 239114
    Range status and errors
    Selected range
    Filename C:\Users\London\Desktop\Fastball - All the pain money can buy.wav
    Peak level 100.0 %
    Range quality 100.0 %
    Test CRC 394A52DB
    Copy CRC 394A52DB
    Copy OK
    No errors occurred
    AccurateRip summary
    Track 1 accurately ripped (confidence 4) [F8C67F54]
    Track 2 accurately ripped (confidence 4) [10CE8A25]
    Track 3 accurately ripped (confidence 4) [46DD6426]
    Track 4 accurately ripped (confidence 4) [3FB91C0C]
    Track 5 accurately ripped (confidence 4) [7A58D56F]
    Track 6 accurately ripped (confidence 4) [D0AB1C06]
    Track 7 accurately ripped (confidence 4) [32EE130E]
    Track 8 accurately ripped (confidence 4) [827ACA94]
    Track 9 accurately ripped (confidence 4) [1900BE42]
    Track 10 accurately ripped (confidence 4) [9FF3CFAE]
    Track 11 accurately ripped (confidence 4) [81D58365]
    Track 12 accurately ripped (confidence 4) [423098FE]
    Track 13 accurately ripped (confidence 4) [E193314B]
    Track 14 accurately ripped (confidence 4) [DAA2E586]
    Track 15 accurately ripped (confidence 4) [9236B17E]
    Track 16 accurately ripped (confidence 4) [1F283C29]
    All tracks accurately ripped
    End of status report

    Отчёт auCDtect Task manager:

    -----------------------
    DON'T MODIFY THIS FILE
    -----------------------
    PERFORMER: auCDtect Task Manager, ver. 1.5.1RC4 build 1.5.1.5
    Copyright (c) 2008-2010 y-soft. All rights reserved
    http://y-soft.org
    ANALYZER: auCDtect: CD records authenticity detector, version 0.8.2
    Copyright (c) 2004 Oleg Berngardt. All rights reserved.
    Copyright (c) 2004 Alexander Djourik. All rights reserved.
    FILE: Fastball - All the pain money can buy.ape
    Size: 369297292 Hash: A63054D9E0D077CCC3CDFE3122EB23E7 Accuracy: -m0
    Conclusion: CDDA 100%
    Signature: 8CC547BEB4E52B005606CE2A2D442007FD91D535

    2000 - The Harsh Light of Day /2000 Hollywood Records/

    Fastball дискография скачать торрент

    Тип раздачи: FLAC (tracks+.cue)
    Наличие сканов: да
    Источник (релизер): RobAtticus
    Трeклист.
    01. This Is Not My Life (3:00)
    02. You're an Ocean (3:18)
    03. Goodbye (3:14)
    04. Love Is Expensive and Free (3:02)
    05. Vampires (3:10)
    06. Wind Me Up (4:00)
    07. Morning Star (4:00)
    08. Time (3:17)
    09. Dark Street (3:29)
    10. Funny How It Fades Away (4:09)
    11. Don't Give up on Me (3:34)
    12. Whatever Gets You On (4:07)

    Exact Audio Copy V0.99 prebeta 4 from 23. January 2008
    EAC extraction logfile from 25. January 2009, 3:20
    Fastball / Harsh Light of Day
    Used drive : SONY DVD+-RW DW-Q58A Adapter: 1 ID: 0
    Read mode : Secure
    Utilize accurate stream : Yes
    Defeat audio cache : Yes
    Make use of C2 pointers : No
    Read offset correction : 6
    Overread into Lead-In and Lead-Out : No
    Fill up missing offset samples with silence : Yes
    Delete leading and trailing silent blocks : No
    Null samples used in CRC calculations : Yes
    Used interface : Native Win32 interface for Win NT & 2000
    Gap handling : Appended to previous track
    Used output format : User Defined Encoder
    Selected bitrate : 128 kBit/s
    Quality : High
    Add ID3 tag : No
    Command line compressor : C:\Program Files\FLAC\flac.exe
    Additional command line options : -V -8 -T "artist=%a" -T "title=%t" -T "album=%g" -T "date=%y" -T "tracknumber=%n" -T "genre=%m" %s
    TOC of the extracted CD
    Track | Start | Length | Start sector | End sector
    ---------------------------------------------------------
    1 | 0:00.00 | 3:00.07 | 0 | 13506
    2 | 3:00.07 | 3:17.65 | 13507 | 28346
    3 | 6:17.72 | 3:13.40 | 28347 | 42861
    4 | 9:31.37 | 3:02.35 | 42862 | 56546
    5 | 12:33.72 | 3:10.15 | 56547 | 70811
    6 | 15:44.12 | 3:59.73 | 70812 | 88809
    7 | 19:44.10 | 3:59.62 | 88810 | 106796
    8 | 23:43.72 | 3:16.58 | 106797 | 121554
    9 | 27:00.55 | 3:28.67 | 121555 | 137221
    10 | 30:29.47 | 4:08.70 | 137222 | 155891
    11 | 34:38.42 | 3:33.43 | 155892 | 171909
    12 | 38:12.10 | 4:06.67 | 171910 | 190426
    13 | 44:51.02 | 3:16.44 | 201827 | 216570
    Track 1
    Filename G:\RIPS\Fastball - 2000 - Harsh Light of Day\01 - This Is Not My Life.wav
    Pre-gap length 0:00:02.00
    Peak level 94.7 %
    Track quality 100.0 %
    Test CRC 2F56CC53
    Copy CRC 2F56CC53
    Accurately ripped (confidence 8) [32DE4F4F]
    Copy OK
    Track 2
    Filename G:\RIPS\Fastball - 2000 - Harsh Light of Day\02 - You're an Ocean.wav
    Peak level 93.1 %
    Track quality 100.0 %
    Test CRC 873528F3
    Copy CRC 873528F3
    Accurately ripped (confidence 8) [767777F6]
    Copy OK
    Track 3
    Filename G:\RIPS\Fastball - 2000 - Harsh Light of Day\03 - Goodbye.wav
    Peak level 93.0 %
    Track quality 100.0 %
    Test CRC D57690F6
    Copy CRC D57690F6
    Accurately ripped (confidence 8) [F504D11E]
    Copy OK
    Track 4
    Filename G:\RIPS\Fastball - 2000 - Harsh Light of Day\04 - Love Is Expensive and Free.wav
    Peak level 95.2 %
    Track quality 100.0 %
    Test CRC A4F2F259
    Copy CRC A4F2F259
    Accurately ripped (confidence 8) [2A1969F3]
    Copy OK
    Track 5
    Filename G:\RIPS\Fastball - 2000 - Harsh Light of Day\05 - Vampires.wav
    Peak level 95.6 %
    Track quality 100.0 %
    Test CRC 33556EA5
    Copy CRC 33556EA5
    Accurately ripped (confidence 8) [F7267F95]
    Copy OK
    Track 6
    Filename G:\RIPS\Fastball - 2000 - Harsh Light of Day\06 - Wind Me Up.wav
    Peak level 93.3 %
    Track quality 100.0 %
    Test CRC C3A1DB2D
    Copy CRC C3A1DB2D
    Accurately ripped (confidence 8) [DFC47591]
    Copy OK
    Track 7
    Filename G:\RIPS\Fastball - 2000 - Harsh Light of Day\07 - Morning Star.wav
    Peak level 90.5 %
    Track quality 100.0 %
    Test CRC 6E11E1D3
    Copy CRC 6E11E1D3
    Accurately ripped (confidence 8) [60C78F92]
    Copy OK
    Track 8
    Filename G:\RIPS\Fastball - 2000 - Harsh Light of Day\08 - Time.wav
    Peak level 94.1 %
    Track quality 100.0 %
    Test CRC 88176A23
    Copy CRC 88176A23
    Accurately ripped (confidence 8) [EF21F69B]
    Copy OK
    Track 9
    Filename G:\RIPS\Fastball - 2000 - Harsh Light of Day\09 - Dark Street.wav
    Peak level 93.6 %
    Track quality 99.9 %
    Test CRC 4101BA0B
    Copy CRC 4101BA0B
    Accurately ripped (confidence 8) [16D1ED0F]
    Copy OK
    Track 10
    Filename G:\RIPS\Fastball - 2000 - Harsh Light of Day\10 - Funny How It Fades Away.wav
    Peak level 92.4 %
    Track quality 100.0 %
    Test CRC 2DD12433
    Copy CRC 2DD12433
    Accurately ripped (confidence 8) [D3AFF8BA]
    Copy OK
    Track 11
    Filename G:\RIPS\Fastball - 2000 - Harsh Light of Day\11 - Don't Give up on Me.wav
    Peak level 93.4 %
    Track quality 100.0 %
    Test CRC CFE984D6
    Copy CRC CFE984D6
    Accurately ripped (confidence 8) [18C81BEF]
    Copy OK
    Track 12
    Filename G:\RIPS\Fastball - 2000 - Harsh Light of Day\12 - Whatever Gets You On.wav
    Peak level 95.2 %
    Track quality 100.0 %
    Test CRC F6375A3B
    Copy CRC F6375A3B
    Accurately ripped (confidence 8) [754AADB7]
    Copy OK
    All tracks accurately ripped
    No errors occurred
    End of status report

    Отчёт auCDtect Task manager:

    -----------------------
    DON'T MODIFY THIS FILE
    -----------------------
    PERFORMER: auCDtect Task Manager, ver. 1.5.1RC4 build 1.5.1.5
    Copyright (c) 2008-2010 y-soft. All rights reserved
    http://y-soft.org
    ANALYZER: auCDtect: CD records authenticity detector, version 0.8.2
    Copyright (c) 2004 Oleg Berngardt. All rights reserved.
    Copyright (c) 2004 Alexander Djourik. All rights reserved.
    FILE: 12 - Whatever Gets You On.flac
    Size: 31245703 Hash: 3594CEB7AB7BD5B162ABA31F48B2229C Accuracy: -m0
    Conclusion: CDDA 100%
    Signature: 6CCB9FE9BA19714543BE241B69689890433EBE57
    FILE: 11 - Don't Give up on Me.flac
    Size: 29040725 Hash: 18FF70344889624A2C2B1DD62E3A9A64 Accuracy: -m0
    Conclusion: CDDA 100%
    Signature: 48598A49BAE295D3DF836A1972E9D59342D1AC38
    FILE: 10 - Funny How It Fades Away.flac
    Size: 30584352 Hash: 6F672EB0F148D1835BE87FDFE43125B7 Accuracy: -m0
    Conclusion: CDDA 100%
    Signature: 96D179D618452F0030F530ADC73AF37E25C6C10C
    FILE: 09 - Dark Street.flac
    Size: 27548759 Hash: ACEE7D54A021DB17CF74AE4A21DB641D Accuracy: -m0
    Conclusion: CDDA 100%
    Signature: 6B2C3BD72001FF96ECC4E48E07996F1C53D96AA5
    FILE: 08 - Time.flac
    Size: 27043973 Hash: 58D0E4C04EB125766825F7648CECF151 Accuracy: -m0
    Conclusion: CDDA 100%
    Signature: E2FCA27ADD83E76A0065E0543866CEF205D6A268
    FILE: 07 - Morning Star.flac
    Size: 31933362 Hash: 9BCEBADB2BAD6CB6D5FEB0D2FEADD014 Accuracy: -m0
    Conclusion: CDDA 99%
    Signature: 9FC38D5935DA792E4B3F86CF25B272722951FFE3
    FILE: 06 - Wind Me Up.flac
    Size: 30040725 Hash: C153C5D4C9AEE50184953978158B8993 Accuracy: -m0
    Conclusion: CDDA 100%
    Signature: DB05171D3B8CDD158A587388184AB4699A97E59A
    FILE: 05 - Vampires.flac
    Size: 23459685 Hash: B145F8C4185C0DC6D1C07DA31F0DDCCC Accuracy: -m0
    Conclusion: CDDA 100%
    Signature: B9B1A0B872934467327D46DDB49931EDD571BF1D
    FILE: 04 - Love Is Expensive and Free.flac
    Size: 23730777 Hash: 205ED93C76067F15FA2ECA85C47489A2 Accuracy: -m0
    Conclusion: CDDA 100%
    Signature: F682E23A4529467C3D301A48BA97ADCC4DAD5611
    FILE: 03 - Goodbye.flac
    Size: 23999763 Hash: 8619CAE748AAACE16DA74D26631438C5 Accuracy: -m0
    Conclusion: CDDA 100%
    Signature: BC01ED365EC4DCEF0B04C22C06F0F8B6E9422173
    FILE: 02 - You're an Ocean.flac
    Size: 26456653 Hash: E12DEB714B1F73D3A311EF36F81F8458 Accuracy: -m0
    Conclusion: CDDA 100%
    Signature: A2045D0B71B70F1459FA19AC5C0E4EEBDE6C88B3
    FILE: 01 - This Is Not My Life.flac
    Size: 23477515 Hash: 95CFD578A01F21CFCDF3565F4034BD34 Accuracy: -m0
    Conclusion: CDDA 100%
    Signature: 50C4DB47D5E99A908A0FB98E288ED1F8DCD8D3EB

    2002 - Painting The Corners: The Best Of Fastball /2002 Hollywood Records/

    Fastball дискография скачать торрент

    Номер по каталогу: 2061-62363-2
    Особенность релиза: Compilation
    Тип раздачи: FLAC (tracks+.cue)
    Наличие сканов: да
    Источник (релизер): hosewater
    Трeклист.
    01. Make Your Mama Proud (2:11)
    02. Emotional (2:20)
    03. Out Of My Head (2:34)
    04. Fire Escape (3:22)
    05. The Way (4:17)
    06. Slow Drag (3:37)
    07. Are You Ready For The Fallout? (3:11)
    08. Dark Street (3:28)
    09. You're An Ocean (3:19)
    10. Vampires (3:11)
    11. Human Torch (2:42)
    12. Sooner Or Later (2:40)
    13. Love Is Expensive And Free (3:03)
    14. She Comes 'Round (3:27)
    15. Black Rain (2:55)
    16. Funny How It Fades Away (4:09)

    Exact Audio Copy V1.0 beta 1 from 15. November 2010
    EAC extraction logfile from 11. December 2010, 19:44
    Fastball / Painting The Corners: The Best Of Fastball
    Used drive : HL-DT-STBDDVDRW GGC-H20N Adapter: 3 ID: 0
    Read mode : Secure
    Utilize accurate stream : Yes
    Defeat audio cache : Yes
    Make use of C2 pointers : No
    Read offset correction : 667
    Overread into Lead-In and Lead-Out : No
    Fill up missing offset samples with silence : Yes
    Delete leading and trailing silent blocks : No
    Null samples used in CRC calculations : Yes
    Used interface : Native Win32 interface for Win NT & 2000
    Gap handling : Appended to previous track
    Used output format : User Defined Encoder
    Selected bitrate : 320 kBit/s
    Quality : High
    Add ID3 tag : No
    Command line compressor : C:\Users\EJ and Lisa\Downloads\flac-1.2.1-win\bin\flac.exe
    Additional command line options : -V -8 -T "artist=%a" -T "title=%t" -T "album=%g" -T "date=%y" -T "tracknumber=%n" -T "genre=%m" %s
    TOC of the extracted CD
    Track | Start | Length | Start sector | End sector
    ---------------------------------------------------------
    1 | 0:00.00 | 2:10.66 | 0 | 9815
    2 | 2:10.66 | 2:20.01 | 9816 | 20316
    3 | 4:30.67 | 2:33.66 | 20317 | 31857
    4 | 7:04.58 | 3:21.70 | 31858 | 47002
    5 | 10:26.53 | 4:16.38 | 47003 | 66240
    6 | 14:43.16 | 3:37.32 | 66241 | 82547
    7 | 18:20.48 | 3:11.14 | 82548 | 96886
    8 | 21:31.62 | 3:27.62 | 96887 | 112473
    9 | 24:59.49 | 3:18.57 | 112474 | 127380
    10 | 28:18.31 | 3:11.07 | 127381 | 141712
    11 | 31:29.38 | 2:41.50 | 141713 | 153837
    12 | 34:11.13 | 2:39.55 | 153838 | 165817
    13 | 36:50.68 | 3:03.33 | 165818 | 179575
    14 | 39:54.26 | 3:27.16 | 179576 | 195116
    15 | 43:21.42 | 2:55.17 | 195117 | 208258
    16 | 46:16.59 | 4:09.00 | 208259 | 226933
    17 | 52:57.59 | 7:42.23 | 238334 | 273006
    Track 1
    Filename E:\Torrents\Fastball - 2002 - Painting The Corners- The Best Of Fastball [FLAC]\01 - Make Your Mama Proud.wav
    Pre-gap length 0:00:02.00
    Peak level 98.5 %
    Extraction speed 0.9 X
    Track quality 100.0 %
    Test CRC 50F3D546
    Copy CRC 50F3D546
    Accurately ripped (confidence 5) [6F7470FD]
    Copy OK
    Track 2
    Filename E:\Torrents\Fastball - 2002 - Painting The Corners- The Best Of Fastball [FLAC]\02 - Emotional.wav
    Pre-gap length 0:00:00.58
    Peak level 98.8 %
    Extraction speed 1.0 X
    Track quality 100.0 %
    Test CRC A448068E
    Copy CRC A448068E
    Accurately ripped (confidence 5) [57466460]
    Copy OK
    Track 3
    Filename E:\Torrents\Fastball - 2002 - Painting The Corners- The Best Of Fastball [FLAC]\03 - Out Of My Head.wav
    Pre-gap length 0:00:00.57
    Peak level 100.0 %
    Extraction speed 1.1 X
    Track quality 100.0 %
    Test CRC 07BAEB35
    Copy CRC 07BAEB35
    Accurately ripped (confidence 5) [E6062C69]
    Copy OK
    Track 4
    Filename E:\Torrents\Fastball - 2002 - Painting The Corners- The Best Of Fastball [FLAC]\04 - Fire Escape.wav
    Pre-gap length 0:00:00.68
    Peak level 99.9 %
    Extraction speed 1.2 X
    Track quality 100.0 %
    Test CRC BA1D0B7E
    Copy CRC BA1D0B7E
    Accurately ripped (confidence 5) [CB1C4EFB]
    Copy OK
    Track 5
    Filename E:\Torrents\Fastball - 2002 - Painting The Corners- The Best Of Fastball [FLAC]\05 - The Way.wav
    Pre-gap length 0:00:00.76
    Peak level 100.0 %
    Extraction speed 1.4 X
    Track quality 100.0 %
    Test CRC 92166D3B
    Copy CRC 92166D3B
    Accurately ripped (confidence 5) [49262A26]
    Copy OK
    Track 6
    Filename E:\Torrents\Fastball - 2002 - Painting The Corners- The Best Of Fastball [FLAC]\06 - Slow Drag.wav
    Pre-gap length 0:00:00.32
    Peak level 100.0 %
    Extraction speed 1.4 X
    Track quality 100.0 %
    Test CRC 9D63E6BC
    Copy CRC 9D63E6BC
    Accurately ripped (confidence 5) [97DCC73D]
    Copy OK
    Track 7
    Filename E:\Torrents\Fastball - 2002 - Painting The Corners- The Best Of Fastball [FLAC]\07 - Are You Ready For The Fallout.wav
    Pre-gap length 0:00:00.77
    Peak level 99.9 %
    Extraction speed 1.4 X
    Track quality 100.0 %
    Test CRC 56BB1D31
    Copy CRC 56BB1D31
    Accurately ripped (confidence 5) [2F69EE9F]
    Copy OK
    Track 8
    Filename E:\Torrents\Fastball - 2002 - Painting The Corners- The Best Of Fastball [FLAC]\08 - Dark Street.wav
    Peak level 98.8 %
    Extraction speed 1.4 X
    Track quality 100.0 %
    Test CRC A66C9610
    Copy CRC A66C9610
    Accurately ripped (confidence 5) [D11B4204]
    Copy OK
    Track 9
    Filename E:\Torrents\Fastball - 2002 - Painting The Corners- The Best Of Fastball [FLAC]\09 - You're An Ocean.wav
    Pre-gap length 0:00:00.45
    Peak level 97.9 %
    Extraction speed 1.4 X
    Track quality 100.0 %
    Test CRC 0664EDFB
    Copy CRC 0664EDFB
    Accurately ripped (confidence 5) [7DCABBDF]
    Copy OK
    Track 10
    Filename E:\Torrents\Fastball - 2002 - Painting The Corners- The Best Of Fastball [FLAC]\10 - Vampires.wav
    Pre-gap length 0:00:01.08
    Peak level 98.8 %
    Extraction speed 1.4 X
    Track quality 100.0 %
    Test CRC FB2CD9CB
    Copy CRC FB2CD9CB
    Accurately ripped (confidence 5) [08F098E1]
    Copy OK
    Track 11
    Filename E:\Torrents\Fastball - 2002 - Painting The Corners- The Best Of Fastball [FLAC]\11 - Human Torch.wav
    Peak level 99.9 %
    Extraction speed 1.4 X
    Track quality 100.0 %
    Test CRC 15EE2AB0
    Copy CRC 15EE2AB0
    Accurately ripped (confidence 5) [82BBF511]
    Copy OK
    Track 12
    Filename E:\Torrents\Fastball - 2002 - Painting The Corners- The Best Of Fastball [FLAC]\12 - Sooner Or Later.wav
    Pre-gap length 0:00:01.37
    Peak level 100.0 %
    Extraction speed 1.1 X
    Track quality 99.9 %
    Test CRC B630C62B
    Copy CRC B630C62B
    Accurately ripped (confidence 5) [E451502C]
    Copy OK
    Track 13
    Filename E:\Torrents\Fastball - 2002 - Painting The Corners- The Best Of Fastball [FLAC]\13 - Love Is Expensive And Free.wav
    Pre-gap length 0:00:00.38
    Peak level 98.8 %
    Extraction speed 1.6 X
    Track quality 100.0 %
    Test CRC EAFAEEFC
    Copy CRC EAFAEEFC
    Accurately ripped (confidence 5) [0FFCA2A2]
    Copy OK
    Track 14
    Filename E:\Torrents\Fastball - 2002 - Painting The Corners- The Best Of Fastball [FLAC]\14 - She Comes 'Round.wav
    Pre-gap length 0:00:00.78
    Peak level 99.9 %
    Extraction speed 1.4 X
    Track quality 99.9 %
    Test CRC B1B7BDBD
    Copy CRC B1B7BDBD
    Accurately ripped (confidence 5) [463F847F]
    Copy OK
    Track 15
    Filename E:\Torrents\Fastball - 2002 - Painting The Corners- The Best Of Fastball [FLAC]\15 - Black Rain.wav
    Pre-gap length 0:00:00.25
    Peak level 98.8 %
    Extraction speed 1.6 X
    Track quality 100.0 %
    Test CRC F7EEDD21
    Copy CRC F7EEDD21
    Accurately ripped (confidence 6) [39C77ED1]
    Copy OK
    Track 16
    Filename E:\Torrents\Fastball - 2002 - Painting The Corners- The Best Of Fastball [FLAC]\16 - Funny How It Fades Away.wav
    Pre-gap length 0:00:00.24
    Peak level 98.8 %
    Extraction speed 1.7 X
    Track quality 100.0 %
    Test CRC 46023BEA
    Copy CRC 46023BEA
    Accurately ripped (confidence 5) [3DFD5ED0]
    Copy OK
    All tracks accurately ripped
    No errors occurred
    End of status report
    ==== Log checksum 0AEA1B12A268DE9F77547ED5B8EB02EDFEC89CCF00EA8E89572036916B8ADD56 ====

    Отчёт auCDtect Task manager:

    -----------------------
    DON'T MODIFY THIS FILE
    -----------------------
    PERFORMER: auCDtect Task Manager, ver. 1.5.1RC4 build 1.5.1.5
    Copyright (c) 2008-2010 y-soft. All rights reserved
    http://y-soft.org
    ANALYZER: auCDtect: CD records authenticity detector, version 0.8.2
    Copyright (c) 2004 Oleg Berngardt. All rights reserved.
    Copyright (c) 2004 Alexander Djourik. All rights reserved.
    FILE: 16 - Funny How It Fades Away.flac
    Size: 30520132 Hash: E7315DB4CC0346AC830897C2F658F767 Accuracy: -m0
    Conclusion: CDDA 100%
    Signature: A23F6B7904F6066250A6F94F41B0FEB29ADE81E8
    FILE: 15 - Black Rain.flac
    Size: 23121081 Hash: C0B657C73C886C3F0A39408CE2812D65 Accuracy: -m0
    Conclusion: CDDA 100%
    Signature: FF89EDA25DDF7972B7699FD676862F53DBC7FD7C
    FILE: 14 - She Comes 'Round.flac
    Size: 26423890 Hash: 959396B28EFE1052B50C3F64C1BCC7FC Accuracy: -m0
    Conclusion: CDDA 100%
    Signature: 04E24206660D4A179C1934FCE709BE1991396FF1
    FILE: 13 - Love Is Expensive And Free.flac
    Size: 23628578 Hash: 965A508E568969207BA569A66AAF1C50 Accuracy: -m0
    Conclusion: CDDA 100%
    Signature: 3B94482CCAB012844D2E49C87F7E1821BC685595
    FILE: 12 - Sooner Or Later.flac
    Size: 20898446 Hash: 0392253154C5DFD17FE648EFD5D3F813 Accuracy: -m0
    Conclusion: CDDA 100%
    Signature: 9424D093BC12D13809FB92E71626334D7DD8034C
    FILE: 11 - Human Torch.flac
    Size: 21711410 Hash: 092235889CE64D6DC4A28B0145133C49 Accuracy: -m0
    Conclusion: CDDA 100%
    Signature: 3B33767D78CFDF2143212F84A1462857D5F86F24
    FILE: 10 - Vampires.flac
    Size: 23335220 Hash: E5DDF2726C23EFE1D539C70409605E2A Accuracy: -m0
    Conclusion: CDDA 100%
    Signature: DA27536E28DBAFFB865DCF7CC61D5B763B2A4333
    FILE: 09 - You're An Ocean.flac
    Size: 26290176 Hash: 5854F494A56022EB2170CDF868FC9955 Accuracy: -m0
    Conclusion: CDDA 100%
    Signature: BF65E8E0AAE156821004F9A3F15C01636D4603B7
    FILE: 08 - Dark Street.flac
    Size: 27379377 Hash: 923AF2E0509A265ADD16271143B0D492 Accuracy: -m0
    Conclusion: CDDA 100%
    Signature: 510712F75CDD281C5FF61BDD508ABEDE2D65BF14
    FILE: 07 - Are You Ready For The Fallout.flac
    Size: 25765623 Hash: 74A53807B47E0C9FFD26876C65629BB0 Accuracy: -m0
    Conclusion: CDDA 100%
    Signature: B8495A33EF348B5DF4B97C48CCDBA6E9CD8EE1A5
    FILE: 06 - Slow Drag.flac
    Size: 26466452 Hash: 7ECA14A20149032D93C9449F70FF9489 Accuracy: -m0
    Conclusion: CDDA 100%
    Signature: 62F5A9B6B3D1D859C091CDA365ED37B419AC3BD5
    FILE: 05 - The Way.flac
    Size: 29138632 Hash: 6B3F86C473AFE8E266DDB8DAE6E016A5 Accuracy: -m0
    Conclusion: CDDA 100%
    Signature: 20F37D8113C29464C6486AF5540F71CBEFDC572C
    FILE: 04 - Fire Escape.flac
    Size: 25668628 Hash: 8ECA577E59AD9C024CE30FBFA08DAB01 Accuracy: -m0
    Conclusion: CDDA 100%
    Signature: EC30537CFBA515CF84589F623864BDEEC9D6C017
    FILE: 03 - Out Of My Head.flac
    Size: 17293543 Hash: 7A622855A99F24A0674F3460970BF521 Accuracy: -m0
    Conclusion: CDDA 100%
    Signature: EF342F3FB4EA609528617C8BCD0EDB7EE1368252
    FILE: 02 - Emotional.flac
    Size: 18476308 Hash: A2A45ADB9D9D3069811E7FB7C9FF5691 Accuracy: -m0
    Conclusion: CDDA 100%
    Signature: C0E089B018D462B7E8C40895AF7C2016FF4BDB3D
    FILE: 01 - Make Your Mama Proud.flac
    Size: 17507465 Hash: EB9EE575F37374EF517801C570EE33AE Accuracy: -m0
    Conclusion: CDDA 100%
    Signature: 6FB6B2127601DB3DD217AEB93ABFCD30A60738CC

    2004 - Keep Your Wig On /2004 Rykodisc/

    Fastball дискография скачать торрент

    Номер по каталогу: RCD 10666
    Тип раздачи: FLAC (tracks+.cue)
    Наличие сканов: да
    Источник (релизер): dbtruckers
    Трeклист.
    01. Shortwave (1:13)
    02. Lou-ee, Lou-ee (2:53)
    03. Drifting Away (3:47)
    04. Airstream (3:29)
    05. I Get High (3:36)
    06. Perfect World (3:35)
    07. 'Til I Get It Right (4:55)
    08. Our Misunderstanding (3:21)
    09. Someday (3:25)
    10. Mercenary Girl (2:42)
    11. Falling Upstairs (3:37)
    12. Red Light (3:18)

    Exact Audio Copy V0.99 prebeta 4 from 23. January 2008
    EAC extraction logfile from 15. May 2009, 18:06
    Fastball / Keep Your Wig On
    Used drive : TSSTcorpCDDVDW TS-H653N Adapter: 2 ID: 2
    Read mode : Secure
    Utilize accurate stream : Yes
    Defeat audio cache : Yes
    Make use of C2 pointers : No
    Read offset correction : 6
    Overread into Lead-In and Lead-Out : No
    Fill up missing offset samples with silence : Yes
    Delete leading and trailing silent blocks : No
    Null samples used in CRC calculations : Yes
    Used interface : Installed external ASPI interface
    Gap handling : Appended to previous track
    Used output format : User Defined Encoder
    Selected bitrate : 320 kBit/s
    Quality : High
    Add ID3 tag : No
    Command line compressor : C:\Program Files\Exact Audio Copy\FLAC\FLAC.EXE
    Additional command line options : -V -8 -T "artist=%a" -T "title=%t" -T "album=%g" -T "date=%y" -T "tracknumber=%n" -T "genre=%m" %s
    TOC of the extracted CD
    Track | Start | Length | Start sector | End sector
    ---------------------------------------------------------
    1 | 0:00.00 | 1:13.02 | 0 | 5476
    2 | 1:13.02 | 2:52.73 | 5477 | 18449
    3 | 4:06.00 | 3:46.71 | 18450 | 35470
    4 | 7:52.71 | 3:29.18 | 35471 | 51163
    5 | 11:22.14 | 3:35.62 | 51164 | 67350
    6 | 14:58.01 | 3:35.09 | 67351 | 83484
    7 | 18:33.10 | 4:55.24 | 83485 | 105633
    8 | 23:28.34 | 3:20.72 | 105634 | 120705
    9 | 26:49.31 | 3:24.55 | 120706 | 136060
    10 | 30:14.11 | 2:41.59 | 136061 | 148194
    11 | 32:55.70 | 3:36.53 | 148195 | 164447
    12 | 36:32.48 | 3:17.48 | 164448 | 179270
    Track 1
    Filename 01 - Shortwave.wav
    Pre-gap length 0:00:02.00
    Peak level 98.8 %
    Track quality 99.8 %
    Test CRC 218D7ACD
    Copy CRC 218D7ACD
    Accurately ripped (confidence 9) [031445CA]
    Copy OK
    Track 2
    Filename 02 - Lou-ee, Lou-ee.wav
    Peak level 98.8 %
    Track quality 100.0 %
    Test CRC A6ED15B4
    Copy CRC A6ED15B4
    Accurately ripped (confidence 10) [8E6E86AB]
    Copy OK
    Track 3
    Filename 03 - Drifting Away.wav
    Pre-gap length 0:00:01.01
    Peak level 100.0 %
    Track quality 100.0 %
    Test CRC 320F4BA8
    Copy CRC 320F4BA8
    Accurately ripped (confidence 10) [A26B74AA]
    Copy OK
    Track 4
    Filename 04 - Airstream.wav
    Peak level 98.8 %
    Track quality 100.0 %
    Test CRC AE5E51FF
    Copy CRC AE5E51FF
    Accurately ripped (confidence 10) [E5B7131B]
    Copy OK
    Track 5
    Filename 05 - I Get High.wav
    Pre-gap length 0:00:00.72
    Peak level 98.8 %
    Track quality 99.9 %
    Test CRC CBF44385
    Copy CRC CBF44385
    Accurately ripped (confidence 10) [4E330A6C]
    Copy OK
    Track 6
    Filename 06 - Perfect World.wav
    Pre-gap length 0:00:00.72
    Peak level 98.8 %
    Track quality 100.0 %
    Test CRC 13C96A60
    Copy CRC 13C96A60
    Accurately ripped (confidence 10) [703A5FE1]
    Copy OK
    Track 7
    Filename 07 - 'Til I Get It Right.wav
    Pre-gap length 0:00:01.45
    Peak level 98.8 %
    Track quality 100.0 %
    Test CRC BDD0F860
    Copy CRC BDD0F860
    Accurately ripped (confidence 10) [AB56E423]
    Copy OK
    Track 8
    Filename 08 - Our Misunderstanding.wav
    Peak level 98.8 %
    Track quality 100.0 %
    Test CRC C1F95D7B
    Copy CRC C1F95D7B
    Accurately ripped (confidence 10) [27F903A2]
    Copy OK
    Track 9
    Filename 09 - Someday.wav
    Pre-gap length 0:00:00.74
    Peak level 98.8 %
    Track quality 100.0 %
    Test CRC 231947F0
    Copy CRC 231947F0
    Accurately ripped (confidence 10) [5A66FABD]
    Copy OK
    Track 10
    Filename 10 - Mercenary Girl.wav
    Pre-gap length 0:00:00.74
    Peak level 98.8 %
    Track quality 100.0 %
    Test CRC B4C7BBA2
    Copy CRC B4C7BBA2
    Accurately ripped (confidence 10) [A5241ACE]
    Copy OK
    Track 11
    Filename 11 - Falling Upstairs.wav
    Pre-gap length 0:00:00.07
    Peak level 98.8 %
    Track quality 100.0 %
    Test CRC 57EEAB43
    Copy CRC 57EEAB43
    Accurately ripped (confidence 10) [468FF613]
    Copy OK
    Track 12
    Filename 12 - Red Light.wav
    Pre-gap length 0:00:00.73
    Peak level 98.8 %
    Track quality 100.0 %
    Test CRC 544E6C7F
    Copy CRC 544E6C7F
    Accurately ripped (confidence 10) [6D6514EF]
    Copy OK
    All tracks accurately ripped
    No errors occurred
    End of status report

    Отчёт auCDtect Task manager:

    -----------------------
    DON'T MODIFY THIS FILE
    -----------------------
    PERFORMER: auCDtect Task Manager, ver. 1.5.1RC4 build 1.5.1.5
    Copyright (c) 2008-2010 y-soft. All rights reserved
    http://y-soft.org
    ANALYZER: auCDtect: CD records authenticity detector, version 0.8.2
    Copyright (c) 2004 Oleg Berngardt. All rights reserved.
    Copyright (c) 2004 Alexander Djourik. All rights reserved.
    FILE: 12 - Red Light.flac
    Size: 25490595 Hash: 1427D5C399668804748389FEBCDD7AFF Accuracy: -m0
    Conclusion: CDDA 100%
    Signature: 8306CF9AD643CD696099657DB9645683897A5366
    FILE: 11 - Falling Upstairs.flac
    Size: 23145619 Hash: A938373428FF4CFFF41F5CEE8089F641 Accuracy: -m0
    Conclusion: CDDA 100%
    Signature: A53FA775FAFB9AC86EBCD9DD4A8A6CCFB6F2AC04
    FILE: 10 - Mercenary Girl.flac
    Size: 18794781 Hash: 45510C1362526B71F0BB2BA032E9C770 Accuracy: -m0
    Conclusion: CDDA 100%
    Signature: 4A64D2F2D836E8446C9D6C4D46CF44D088744852
    FILE: 09 - Someday.flac
    Size: 24025945 Hash: C55D4F93B99EA1D13F434A130D258E31 Accuracy: -m0
    Conclusion: CDDA 100%
    Signature: 406814A5500D73E5640D2D6A37198379232411B8
    FILE: 08 - Our Misunderstanding.flac
    Size: 23532091 Hash: 23A838A22FF07AEEB3444E8C3F006913 Accuracy: -m0
    Conclusion: CDDA 100%
    Signature: 71112A9BFAC23EF79C365EA1C20A0EAEAE8161A3
    FILE: 07 - 'Til I Get It Right.flac
    Size: 37835969 Hash: 23F5B02262008BCC8C7B15C4890C8B3D Accuracy: -m0
    Conclusion: CDDA 100%
    Signature: 54F6AEDA6C3265EF1471C898B8D045F36BC1DFD8
    FILE: 06 - Perfect World.flac
    Size: 27413783 Hash: 67FE09A236F7683B39861A8388B3B5FF Accuracy: -m0
    Conclusion: CDDA 100%
    Signature: CD93DED4A6E5F562EF02C4DFA1B8CE09512B507A
    FILE: 05 - I Get High.flac
    Size: 24167955 Hash: 130D50C51AEF6FDA1D74EDF58D831C53 Accuracy: -m0
    Conclusion: CDDA 100%
    Signature: 7577C1DD9086298B1A583EFF0E70FB89C3D1DFA0
    FILE: 04 - Airstream.flac
    Size: 25741842 Hash: 9C9B2B8DD0C259AE60123EE81081D8E0 Accuracy: -m0
    Conclusion: CDDA 100%
    Signature: 9705486598497C9E97B0283DA409BEB546FAB2CC
    FILE: 03 - Drifting Away.flac
    Size: 29029202 Hash: BE4139DFE53689AA4B7D161D2883F5C9 Accuracy: -m0
    Conclusion: CDDA 100%
    Signature: 9A6625D4D96638BEBC8B5F840175290BEBD78AFD
    FILE: 02 - Lou-ee, Lou-ee.flac
    Size: 22352018 Hash: 08EEC9EFA8B6911606274C4D81C889DD Accuracy: -m0
    Conclusion: CDDA 100%
    Signature: F670EDB984831E09A8DCBDB95EB7D1A0ACD008BB
    FILE: 01 - Shortwave.flac
    Size: 7263307 Hash: E60A52F0A8E8BCE963F0C8E45551F5BC Accuracy: -m0
    Conclusion: CDDA 100%
    Signature: DD5FBD8A51F222926AA442147F901DC5902D155E

    2009 - Little White Lies /2009 Fastball Self-released/

    Fastball дискография скачать торрент

    Страна-производитель диска: US
    Номер по каталогу: none
    Тип раздачи: FLAC (tracks+.cue)
    Наличие сканов: нет
    Источник (релизер): sourgrape
    Трeклист.
    01. All I Was Looking For Was You (3:42)
    02. Always Never (3:08)
    03. The Malcontent (The Modern World) (3:10)
    04. Little White Lies (3:23)
    05. Mono to Stereo (3:35)
    06. How Did I Get Here? (3:00)
    07. We'll Always Have Paris (3:39)
    08. Angelie (3:56)
    09. She's Got the Rain (3:27)
    10. Rampart Street (2:09)
    11. White Noise (2:45)
    12. Soul Radio (4:06)

    Exact Audio Copy V0.99 prebeta 4 from 23. January 2008
    EAC extraction logfile from 16. April 2009, 21:37
    Fastball / Little White Lies
    Used drive : TSSTcorpCDDVDW SH-S203B Adapter: 4 ID: 1
    Read mode : Secure
    Utilize accurate stream : Yes
    Defeat audio cache : Yes
    Make use of C2 pointers : No
    Read offset correction : 6
    Overread into Lead-In and Lead-Out : No
    Fill up missing offset samples with silence : Yes
    Delete leading and trailing silent blocks : No
    Null samples used in CRC calculations : Yes
    Used interface : Native Win32 interface for Win NT & 2000
    Gap handling : Appended to previous track
    Used output format : User Defined Encoder
    Selected bitrate : 320 kBit/s
    Quality : High
    Add ID3 tag : No
    Command line compressor : C:\Program Files\Exact Audio Copy\Flac\flac.exe
    Additional command line options : --best -T "ARTIST=%a" -T "TITLE=%t" -T "ALBUM=%g" -T "DATE=%y" -T "TRACKNUMBER=%n" -T "GENRE=%m" %s
    TOC of the extracted CD
    Track | Start | Length | Start sector | End sector
    ---------------------------------------------------------
    1 | 0:00.00 | 3:41.72 | 0 | 16646
    2 | 3:41.72 | 3:08.15 | 16647 | 30761
    3 | 6:50.12 | 3:10.25 | 30762 | 45036
    4 | 10:00.37 | 3:23.33 | 45037 | 60294
    5 | 13:23.70 | 3:34.47 | 60295 | 76391
    6 | 16:58.42 | 2:59.43 | 76392 | 89859
    7 | 19:58.10 | 3:38.40 | 89860 | 106249
    8 | 23:36.50 | 3:55.60 | 106250 | 123934
    9 | 27:32.35 | 3:27.35 | 123935 | 139494
    10 | 30:59.70 | 2:09.00 | 139495 | 149169
    11 | 33:08.70 | 2:44.47 | 149170 | 161516
    12 | 35:53.42 | 4:06.18 | 161517 | 179984
    Track 1
    Filename E:\working\music\flac\Fastball\Little White Lies\01-All I Was Looking For Was You.wav
    Pre-gap length 0:00:02.00
    Peak level 98.7 %
    Track quality 100.0 %
    Test CRC 291453AC
    Copy CRC 291453AC
    Track not present in AccurateRip database
    Copy OK
    Track 2
    Filename E:\working\music\flac\Fastball\Little White Lies\02-Always Never.wav
    Peak level 98.7 %
    Track quality 100.0 %
    Test CRC 13BD1A62
    Copy CRC 13BD1A62
    Track not present in AccurateRip database
    Copy OK
    Track 3
    Filename E:\working\music\flac\Fastball\Little White Lies\03-The Malcontent (The Modern World).wav
    Peak level 98.7 %
    Track quality 100.0 %
    Test CRC 5667EFF7
    Copy CRC 5667EFF7
    Track not present in AccurateRip database
    Copy OK
    Track 4
    Filename E:\working\music\flac\Fastball\Little White Lies\04-Little White Lies.wav
    Peak level 98.7 %
    Track quality 100.0 %
    Test CRC BEE68CC1
    Copy CRC BEE68CC1
    Track not present in AccurateRip database
    Copy OK
    Track 5
    Filename E:\working\music\flac\Fastball\Little White Lies\05-Mono to Stereo.wav
    Peak level 98.7 %
    Track quality 100.0 %
    Test CRC 99FF4C6A
    Copy CRC 99FF4C6A
    Track not present in AccurateRip database
    Copy OK
    Track 6
    Filename E:\working\music\flac\Fastball\Little White Lies\06-How Did I Get Here .wav
    Peak level 98.7 %
    Track quality 100.0 %
    Test CRC 1B192A66
    Copy CRC 1B192A66
    Track not present in AccurateRip database
    Copy OK
    Track 7
    Filename E:\working\music\flac\Fastball\Little White Lies\07-We'll Always Have Paris.wav
    Peak level 98.7 %
    Track quality 100.0 %
    Test CRC 8CAAABBD
    Copy CRC 8CAAABBD
    Track not present in AccurateRip database
    Copy OK
    Track 8
    Filename E:\working\music\flac\Fastball\Little White Lies\08-Angelie.wav
    Peak level 98.7 %
    Track quality 100.0 %
    Test CRC F83E826B
    Copy CRC F83E826B
    Track not present in AccurateRip database
    Copy OK
    Track 9
    Filename E:\working\music\flac\Fastball\Little White Lies\09-She's Got the Rain.wav
    Peak level 98.7 %
    Track quality 100.0 %
    Test CRC D4E3954E
    Copy CRC D4E3954E
    Track not present in AccurateRip database
    Copy OK
    Track 10
    Filename E:\working\music\flac\Fastball\Little White Lies\10-Rampart Street.wav
    Peak level 98.9 %
    Track quality 100.0 %
    Test CRC D345D3C3
    Copy CRC D345D3C3
    Track not present in AccurateRip database
    Copy OK
    Track 11
    Filename E:\working\music\flac\Fastball\Little White Lies\11-White Noise.wav
    Peak level 98.7 %
    Track quality 100.0 %
    Test CRC E2F0BC64
    Copy CRC E2F0BC64
    Track not present in AccurateRip database
    Copy OK
    Track 12
    Filename E:\working\music\flac\Fastball\Little White Lies\12-Soul Radio.wav
    Peak level 98.7 %
    Track quality 100.0 %
    Test CRC D18D2B10
    Copy CRC D18D2B10
    Track not present in AccurateRip database
    Copy OK
    None of the tracks are present in the AccurateRip database
    No errors occurred
    End of status report

    Отчёт auCDtect Task manager:

    -----------------------
    DON'T MODIFY THIS FILE
    -----------------------
    PERFORMER: auCDtect Task Manager, ver. 1.5.1RC4 build 1.5.1.5
    Copyright (c) 2008-2010 y-soft. All rights reserved
    http://y-soft.org
    ANALYZER: auCDtect: CD records authenticity detector, version 0.8.2
    Copyright (c) 2004 Oleg Berngardt. All rights reserved.
    Copyright (c) 2004 Alexander Djourik. All rights reserved.
    FILE: 12-Soul Radio.flac
    Size: 28569477 Hash: B01705A8793DB54E9BDCBEAF24A745B2 Accuracy: -m0
    Conclusion: CDDA 100%
    Signature: 626BF00E248C237FB48238AD24A0FDA36DDE57DF
    FILE: 11-White Noise.flac
    Size: 21149810 Hash: CDAEC75405436E3BCA0D57CBE0025863 Accuracy: -m0
    Conclusion: CDDA 100%
    Signature: 04F6481A0428A717B736BC426079A6A759394F90
    FILE: 10-Rampart Street.flac
    Size: 17264801 Hash: B38FB635FBD5E022DA3B4A1AA02ABBC4 Accuracy: -m0
    Conclusion: CDDA 99%
    Signature: 304C09D2CE3025AA8C6706F18C1311B454A5F737
    FILE: 09-She's Got the Rain.flac
    Size: 26880631 Hash: 548E5BD9BAA0C3984B1137B58959DFDD Accuracy: -m0
    Conclusion: CDDA 99%
    Signature: 20CE377B111EDA52B3CFEFE5A7BC9EFE220969A5
    FILE: 08-Angelie.flac
    Size: 26839718 Hash: 3A7ADE226CF765785038ACCACA494F7C Accuracy: -m0
    Conclusion: CDDA 100%
    Signature: 5D64A08C29518BB880C4AAB2A73487E628DC980F
    FILE: 07-We'll Always Have Paris.flac
    Size: 28430482 Hash: 7D22FE4233918007BD575D9CABF470E5 Accuracy: -m0
    Conclusion: CDDA 100%
    Signature: 007482675D86A837B1AE031D95465553FAAA9DD8
    FILE: 06-How Did I Get Here .flac
    Size: 21441625 Hash: A3CEA5C37CDB73F7F19A7DF57E4FE154 Accuracy: -m0
    Conclusion: CDDA 100%
    Signature: 22E8E53CF0C37024BD907C86B9E1B435670D856A
    FILE: 05-Mono to Stereo.flac
    Size: 25769609 Hash: DC98302DD945F2620E954B21458CECFE Accuracy: -m0
    Conclusion: CDDA 100%
    Signature: 58CFF190DBC06D1E0807F1A38691DF7E6003462F
    FILE: 04-Little White Lies.flac
    Size: 25085799 Hash: 574D07F326A7A81EC10A04A26D41F67C Accuracy: -m0
    Conclusion: CDDA 100%
    Signature: B6D0C9871EFB19EBFFD00F39DE7F68E989EA7A15
    FILE: 03-The Malcontent (The Modern World).flac
    Size: 22474623 Hash: 45A8A27E733D2AF7333392996DBEF9A2 Accuracy: -m0
    Conclusion: CDDA 99%
    Signature: D427496B9AADBF12CEC40C3D66279979CE3FBDAD
    FILE: 02-Always Never.flac
    Size: 23549429 Hash: 506BD21AFBBEB94F8EE298C93ECD7061 Accuracy: -m0
    Conclusion: CDDA 100%
    Signature: 59CD79CEF7A4482F9B682F0652C3BFF6EB13AF63
    FILE: 01-All I Was Looking For Was You.flac
    Size: 28646292 Hash: E6A0D757F6F29CCEA87AE05A056B01C6 Accuracy: -m0
    Conclusion: CDDA 99%
    Signature: 5E466B4B62B29A862F64BC65ADB5DE309CB96D00

    Дополнительная информация:

    Fastball дискография скачать торрентFastball дискография скачать торрентFastball дискография скачать торрентFastball дискография скачать торрентFastball дискография скачать торрентFastball дискография скачать торрентFastball дискография скачать торрент
    http://www.fastballtheband.com/
    http://en.wikipedia.org/wiki/Fastball_ (band)
    http://www.allmusic.com/artist/fastball-mn0000146490/discography/all
    http://www.amazon.com/Fastball/e/B000APBGM6/ref=ntt_mp3_rdr_glnc?_encoding=UTF8&sn=d
    Fastball - американская рок-группа, образованная в Остине, штат Техас в 1990 году. Группа первоначально называлась "Magneto U.S.A.", но изменила на Fastball после подписания контракта с Hollywood Records.
    В 1998 году их альбом All the Pain Money Can Buy достиг платины в течение шести месяцев после выпуска и остался в Top 200 альбомов Billboard в течение года. Кроме того, группа была номинирована на две премии Grammy Awards. Последующие альбомы также заслужили достойного внимания.
    Members
    Current members
    Tony Scalzo (b. May 6, 1964, Honolulu, Hawaii) - vocals, bass guitar, keyboards, guitar
    Miles Zuniga (b. September 10, 1966, Laredo, Texas) - vocals, guitar
    Joey Shuffield (b. December 28, 1969) - drums, percussion
    Touring members
    Cory Glaeser - bass guitar, vocals
    Discography
    Studio albums
    1996 - Make Your Mama Proud
    1998 - All the Pain Money Can Buy (#29 US)
    2000 - The Harsh Light of Day (#97 US)
    2004 - Keep Your Wig On
    2009 - Little White Lies
    Other releases
    2002 - Painting the Corners: The Best of Fastball
    2003 - Live From Jupiter Records

    Время раздачи: 10:00 - 02:00 -
    Поглощение/вытеснение
    Только с согласия релизера
    Bigbeer